<?xml version="1.0" standalone="no"?>
<!DOCTYPE svg PUBLIC "-//W3C//DTD SVG 1.1//EN" "http://www.w3.org/Graphics/SVG/1.1/DTD/svg11.dtd" >
<svg xmlns="http://www.w3.org/2000/svg">
  <metadata>Created by iconfont</metadata>
  <defs>
  <font id="iconfont" horiz-adv-x="1024">
    <font-face
      font-family="iconfont"
      font-weight="400"
      font-stretch="normal"
      units-per-em="1024"
      ascent="896"
      descent="-128"
    />
      <missing-glyph />
      
      <glyph glyph-name="tishi" unicode="&#58919;" d="M521-42c-231 0-420 189-420 420s189 420 420 420 420-189 420-420-189-420-420-420z m0 780c-198 0-360-162-360-360s162-360 360-360 360 162 360 360-162 360-360 360zM521 132c-15 0-30 12-30 30v300c0 15 12 30 30 30s30-12 30-30v-300c-3-18-15-30-30-30zM521 567m-30 0a30 30 0 1 1 60 0 30 30 0 1 1-60 0Z"  horiz-adv-x="1024" />
      
      <glyph glyph-name="a-guanbi3" unicode="&#59374;" d="M512 804C280.06 804 92 615.94 92 384s188.06-420 420-420 420 188.06 420 420S743.94 804 512 804z m155.06-579.56l-61.88 0.28L512 335.8l-93.1-111-61.96-0.28a7.46 7.46 0 0 0-7.5 7.5 7.8 7.8 0 0 0 1.78 4.86l121.96 145.32-121.96 145.2a7.52 7.52 0 0 0 5.72 12.38l61.96-0.26L512 428.44l93.1 111 61.86 0.28c4.14 0 7.5-3.28 7.5-7.5a7.8 7.8 0 0 0-1.78-4.88l-121.78-145.2 121.88-145.32a7.52 7.52 0 0 0-5.72-12.38z"  horiz-adv-x="1024" />
      
      <glyph glyph-name="double_arrow_down" unicode="&#58927;" d="M223.411133 403.281006l3.823242-3.460693L512 115.054688l284.765625 284.765625a50.328369 50.328369 0 0 0 67.796631 3.098144l3.361816-3.098144c18.457031-18.457031 19.610596-47.592774 3.460693-67.368165l-3.460693-3.823242-320.361328-320.361328c-18.391113-18.424073-47.559814-19.577637-67.335205-3.427734l-3.823242 3.460693-320.361328 320.361328a50.328369 50.328369 0 0 0 67.368164 74.619141zM864.562256 765.467285l3.361816-3.098145c18.457031-18.457031 19.610596-47.592774 3.460693-67.368163l-3.460693-3.823243-320.361328-320.361328c-18.391113-18.424073-47.559814-19.577637-67.335205-3.427734l-3.823242 3.460693L156.042969 691.177734A50.328369 50.328369 0 0 0 223.444092 765.796875L227.234375 762.36914 512 477.603515 796.765625 762.36914a50.328369 50.328369 0 0 0 67.796631 3.098145z"  horiz-adv-x="1024" />
      
      <glyph glyph-name="zhiding" unicode="&#58896;" d="M814.23125 740.45625a37.321875 37.321875 0 0 0-37.321875-37.321875H240.804688a37.321875 37.321875 0 0 0 0 74.64375h536.104687a37.321875 37.321875 0 0 0 37.321875-37.321875z m-302.385938-138.796875a37.321875 37.321875 0 0 1-37.321874-37.321875v-536.104687a37.321875 37.321875 0 0 1 74.643749 0V564.3375a37.321875 37.321875 0 0 1-37.321874 37.321875z m26.49375 27.534375c-14.582812 14.56875-37.378125 15.4125-50.90625 1.870313L212.496875 356.15625c-13.542188-13.542188-12.698438-36.3375 1.870313-50.90625 14.582812-14.582812 37.364063-15.4125 50.90625-1.870313l274.921875 274.907813c13.528125 13.542188 12.698438 36.3375-1.870313 50.90625z m-52.973437 0c-14.56875-14.56875-15.4125-37.364063-1.870313-50.90625l274.921875-274.921875c13.528125-13.528125 36.323437-12.698438 50.90625 1.884375 14.56875 14.56875 15.398438 37.364063 1.85625 50.90625L536.271875 631.064062c-13.542188 13.542188-36.3375 12.698438-50.90625-1.870312z"  horiz-adv-x="1024" />
      
      <glyph glyph-name="shejiguifan" unicode="&#58880;" d="M890.13096 554.711832L719.560492 384.08111l173.154401-173.213882c19.127283-19.134235 19.127283-50.154562 0-69.28648l-138.522749-138.575278c-19.126511-19.131918-50.136795-19.131918-69.26176 0L511.775982 176.223215 407.883341 72.292723c-92.063713-92.094612-264.5646-55.837669-264.5646-55.83767S107.747757 187.770962 200.097286 280.152163l103.894186 103.928947L130.836298 557.29731c-19.124966 19.134235-19.124966 50.154562 0 69.28648L269.360592 765.158295c19.124966 19.131918 50.13525 19.131918 69.260216 0L511.775982 591.941322l170.61141 170.670891c4.943075 6.657972 13.265734 12.057581 26.461945 12.057581 22.911644 0.484343 53.397417 1.130905 74.526958 1.580486 14.896431 0 32.515068-7.117596 39.66588-14.267635 17.43865-17.379169 46.296816-46.139231 64.514122-64.296284 8.043022-8.043022 16.116943-19.620123 16.116944-43.027696C903.673241 598.945364 908.311188 566.665129 890.13096 554.711832zM569.493858 187.770962l51.945935 51.963701c3.188782 3.188782 8.355875 3.188782 11.543884 0l11.543884-11.547747c3.186464-3.188782 3.186464-8.358965 0-11.547746l-51.945934-51.963702 46.173992-46.193304 51.945934 51.965247c3.188782 3.190327 8.355875 3.190327 11.543885 0l11.542339-11.54543c3.188782-3.190327 3.188782-8.36051 0-11.549291l-51.945934-51.965246 34.631652-34.642468c12.752037-12.755127 33.424273-12.755127 46.173993 0l92.347984 92.381201c12.752037 12.755127 12.752037 33.436632 0 46.191759L684.930384 349.438643 546.40609 210.867228 569.493858 187.770962zM182.324926 120.65514c35.21719-33.016405 50.100489-45.887403 73.209114-67.139769 28.671227 0.919247 76.184692 11.872959 94.631424 30.325098L211.641171 222.413429C192.256653 203.021959 181.981947 150.729956 182.324926 120.65514zM327.076923 707.419561c-12.750492 12.753582-33.424273 12.753582-46.173992 0L188.552629 615.037588c-12.748947-12.755127-12.748947-33.436632 0-46.191759l34.631653-34.644012 51.945935 51.965246c3.188782 3.188782 8.355875 3.188782 11.543884 0l11.543884-11.545429c3.186464-3.190327 3.186464-8.36051 0-11.549292l-51.945934-51.965246 46.173992-46.191759 51.945934 51.965246c3.188782 3.190327 8.355875 3.190327 11.543885 0l11.542339-11.547747c3.190327-3.188782 3.190327-8.358965 0-11.547747l-51.944389-51.965246 23.086223-23.094721L477.145874 557.29731 327.076923 707.419561zM691.375153 625.714754c-11.28356 11.282015-16.950445 20.533962-16.950446 39.241791 0.160675 6.175947 0.349932 13.376198 0.546914 20.953417L246.272823 257.057442l138.522749-138.575278 429.361582 429.515305c-3.656902-0.078793-7.37483-0.157585-10.772953-0.23097-28.899879 0-42.001848 8.224554-52.477398 18.698558C733.47974 583.809465 708.17342 608.996824 691.375153 625.714754zM810.331852 683.753208c-18.744135 18.744135-41.5345 26.340666-50.907726 16.969757-9.373226-9.373226-1.774378-32.165136 16.969757-50.909271 18.74259-18.744135 41.536818-26.340666 50.907726-16.968212C836.674835 642.214846 829.075987 665.009073 810.331852 683.753208z"  horiz-adv-x="1024" />
      
      <glyph glyph-name="dingwei" unicode="&#58894;" d="M515.01248 804c-172.17792 0-318.01824-146.6592-318.01824-320.376 0-181.91904 169.01472-367.95456 282.70464-498.7056 0.43584-0.52512 18.80352-20.91744 41.45184-20.91744 0.05184 0 1.92384 0 1.99968 0 22.63584 0 40.88832 20.39232 41.35008 20.91744 106.69344 122.65152 262.50432 324.88704 262.50432 498.7056C827.00576 657.3408 713.26112 804 515.01248 804zM525.56096 20.12928c-0.93696-0.92256-2.25504-1.96128-3.44832-2.79552-1.1904 0.83424-2.52384 1.87296-3.47328 2.79552l-13.75296 15.79104C397.1024 159.5712 249.49568 328.90368 249.49568 483.624c0 145.21056 121.58784 267.888 265.51584 267.888 179.25504 0 259.49184-134.53344 259.49184-267.888C774.50336 366.16416 690.75488 210.21312 525.56096 20.12928zM512.936 645.03552c-86.97984 0-157.5024-70.5216-157.5024-157.5024 0-86.97984 70.52256-157.5024 157.5024-157.5024 86.97888 0 157.50144 70.52352 157.50144 157.5024C670.4384 574.51392 599.91488 645.03552 512.936 645.03552zM512.936 382.53216c-57.8976 0-106.20768 48.24576-106.20768 106.15488 0 57.8976 47.10528 105.00192 105.00192 105.00192 57.90912 0 105.00096-47.10528 105.00096-105.00192C616.73216 430.77792 570.84512 382.53216 512.936 382.53216z"  horiz-adv-x="1024" />
      
      <glyph glyph-name="bofang" unicode="&#58886;" d="M542.677544 818.086761c-244.133068 0-442.041759-197.90869-442.041759-442.041759 0-244.13523 197.907609-442.043921 442.041759-442.043921 244.131987 0 442.041759 197.90869 442.041759 442.043921C984.719303 620.176989 786.809531 818.086761 542.677544 818.086761L542.677544 818.086761zM542.677544-21.792474c-219.720086 0-397.838556 178.11847-397.838556 397.838556 0 219.717925 178.11847 397.836394 397.838556 397.836394s397.837475-178.11847 397.837475-397.836394C940.515019 156.325996 762.39763-21.792474 542.677544-21.792474L542.677544-21.792474zM743.331574 407.373213c-68.790201 46.806952-193.528037 116.866062-264.554501 160.275927-29.12005 18.363509-53.607611 10.988923-55.957362-21.44499-1.703407-86.871611 0-254.487537 0-342.862598 1.477511-32.925696 30.506771-37.268519 55.701202-24.04874 70.946481 42.984013 192.881694 116.857415 264.189177 160.059759C742.245327 339.635752 796.851637 369.669114 743.331574 407.373213L743.331574 407.373213z"  horiz-adv-x="1085" />
      
      <glyph glyph-name="zuo" unicode="&#58940;" d="M679.7152-34.133333c8.734933 0 17.470933 3.332267 24.136533 9.9968 13.329067 13.330133 13.329067 34.942933 0 48.273066L343.9872 384l359.864533 359.864533c13.329067 13.330133 13.329067 34.941867 0 48.272-13.3312 13.330133-34.941867 13.330133-48.273066 0l-384-384c-13.329067-13.330133-13.329067-34.941867 0-48.272l384-384c6.6656-6.6656 15.4016-9.997867 24.136533-9.997866z"  horiz-adv-x="1024" />
      
      <glyph glyph-name="weibo" unicode="&#59196;" d="M459.840909 408.545455c-79.772727-3.835227-144.204545-46.789773-144.204545-100.482955s64.431818-94.346591 144.204545-90.511364S604.045455 272.011364 604.045455 325.704545c-0.767045 52.926136-65.198864 86.676136-144.204546 82.84091z m53.693182-135.767046c-24.545455-32.215909-72.869318-47.556818-119.659091-21.477273-22.244318 12.272727-21.477273 36.051136-21.477273 36.051137s-9.204545 75.9375 70.568182 85.142045c80.539773 9.971591 95.113636-67.5 70.568182-99.715909zM459.840909 324.170455c-5.369318-3.835227-6.136364-10.738636-3.068182-15.34091 2.301136-4.602273 9.204545-5.369318 13.806818-1.53409 4.602273 3.835227 6.903409 10.738636 3.835228 15.340909-2.301136 4.602273-8.4375 5.369318-14.573864 1.534091zM422.255682 313.431818c-15.340909-1.534091-25.3125-14.573864-25.3125-27.613636 0-12.272727 12.272727-21.477273 26.846591-19.943182 14.573864 1.534091 26.846591 13.039773 26.846591 26.079545s-11.505682 23.011364-28.380682 21.477273zM512 805.875C278.818182 805.875 90.125 617.181818 90.125 384s188.693182-421.875 421.875-421.875 421.875 188.693182 421.875 421.875S745.181818 805.875 512 805.875z m162.613636-516.221591C641.630682 219.085227 533.477273 184.568182 453.704545 190.704545c-75.9375 6.136364-174.119318 31.448864-184.090909 125.02841 0 0-5.369318 42.1875 35.284091 96.647727 0 0 58.295455 82.073864 125.795455 105.852273 68.267045 23.011364 75.9375-16.107955 75.9375-39.886364-3.835227-19.943182-9.971591-31.448864 15.340909-23.778409 0 0 66.732955 31.448864 94.346591 3.835227 22.244318-22.244318 3.835227-53.693182 3.835227-53.693182s-9.204545-9.971591 9.971591-13.806818c17.642045-3.068182 77.471591-30.681818 44.488636-101.25z m-65.965909 194.829546c-6.903409 0-13.039773 6.136364-13.039772 13.039772 0 7.670455 6.136364 13.039773 13.039772 13.039773 0 0 82.073864 15.340909 72.102273-73.636364v-1.534091c-0.767045-6.136364-6.136364-11.505682-13.039773-11.505681-7.670455 0-13.039773 6.136364-13.039772 13.039772 0 1.534091 13.039773 60.596591-46.022728 47.556819zM747.482955 399.340909c-2.301136-15.340909-9.971591-9.204545-18.409091-9.204545-10.738636 0-19.176136 13.806818-19.176137 24.545454 0 9.204545 3.835227 18.409091 3.835228 18.409091 0.767045 3.835227 9.971591 28.380682-6.136364 64.431818-29.147727 49.857955-87.443182 49.857955-94.346591 47.556818-6.903409-3.068182-17.642045-4.602273-17.642045-4.602272-10.738636 0-19.176136 8.4375-19.176137 19.176136 0 9.204545 6.136364 16.107955 13.806818 18.409091 0 0 0-0.767045 0.767046-0.767045s1.534091-0.767045 1.534091-0.767046c8.4375 1.534091 37.585227 3.835227 65.198863-3.068182 51.392045-12.272727 120.426136-69.034091 89.744319-174.119318z"  horiz-adv-x="1024" />
      
      <glyph glyph-name="zhinenggang" unicode="&#58893;" d="M795.125 792.75c71.25 0 127.5-56.25 127.5-127.5 0-69.375-58.125-127.5-127.5-127.5-35.625 0-67.5 15-91.875 37.5l-30-31.875c33.75-33.75 54.375-80.625 54.375-133.125 0-50.625-18.75-95.625-50.625-129.375l52.5-48.75c24.375 20.625 56.25 31.875 90 31.875 78.75 0 142.5-63.75 142.5-142.5 0-78.75-63.75-142.5-142.5-142.5-78.75 0-142.5 63.75-142.5 142.5 0 35.625 13.125 67.5 33.75 91.875l-52.5 48.75c-31.875-26.25-73.125-41.25-118.125-41.25-50.625 0-95.625 18.75-129.375 50.625l-26.25-26.25c18.75-28.125 30-61.875 30-97.5 0-97.5-78.75-176.25-176.25-176.25s-176.25 78.75-176.25 176.25 78.75 174.375 176.25 174.375c50.625 0 97.5-22.5 129.375-58.125l24.375 26.25c-26.25 31.875-43.125 73.125-43.125 118.125 0 39.375 11.25 75 31.875 105l-58.125 52.5c-18.75-18.75-45-30-75-30-58.125 0-105 46.875-105 105 0 58.125 46.875 105 105 105 58.125 0 105-46.875 105-105 0-20.625-5.625-37.5-15-54.375l58.125-52.5c33.75 37.5 84.375 61.875 140.625 61.875 43.125 0 82.5-15 114.375-39.375l33.75 33.75c-13.125 20.625-20.625 43.125-20.625 69.375 3.75 76.875 60 133.125 131.25 133.125z m-352.5-480h196.875s3.75 26.25 0 41.25c-3.75 15-45 63.75-52.5 65.625-1.875 0-15 1.875-31.875 1.875 20.625 9.375 35.625 35.625 35.625 60 0 30-22.5 52.5-50.625 52.5-28.125 0-50.625-24.375-50.625-52.5 0-24.375 15-50.625 37.5-60h-30s-50.625-35.625-52.5-69.375c-3.75-33.75-1.875-39.375-1.875-39.375z"  horiz-adv-x="1024" />
      
      <glyph glyph-name="gupiao" unicode="&#59053;" d="M365.917911-15.626866c-18.470149 0-33.582089 15.11194-33.58209 33.58209v134.328358c0 18.470149 15.11194 33.582089 33.58209 33.582089s33.582089-15.11194 33.582089-33.582089v-134.328358c0-18.470149-15.11194-33.582089-33.582089-33.58209zM532.149254-15.626866c-18.470149 0-33.582089 15.11194-33.58209 33.58209v201.492537c0 18.470149 15.11194 33.582089 33.58209 33.58209s33.582089-15.11194 33.582089-33.58209v-201.492537c0-18.470149-15.11194-33.582089-33.582089-33.58209zM698.380597-15.626866c-18.470149 0-33.582089 15.11194-33.58209 33.58209v302.238806c0 18.470149 15.11194 33.582089 33.58209 33.582089s33.582089-15.11194 33.58209-33.582089v-302.238806c0-18.470149-15.11194-33.582089-33.58209-33.58209zM836.067164-15.626866c-18.470149 0-33.582089 15.11194-33.582089 33.58209v486.940299c0 18.470149 15.11194 33.582089 33.582089 33.582089s33.582089-15.11194 33.58209-33.582089v-486.940299c0-18.470149-15.11194-33.582089-33.58209-33.58209zM194.649254 286.61194c-15.11194 0-23.507463 0-26.865672 1.679105-18.470149 1.679105-31.902985 18.470149-30.223881 36.940298 1.679105 18.470149 18.470149 31.902985 36.940299 30.223881 13.432836-1.679105 342.537313-26.865671 589.365671 369.402985 10.074627 15.11194 30.223881 20.149254 47.014926 10.074627 15.11194-10.074627 20.149254-30.223881 10.074627-47.014925C590.917911 316.835821 287 286.61194 194.649254 286.61194zM847.820895 609c-13.432836 0-26.865671 8.395523-31.902984 23.507463l-26.865672 78.91791-87.313433-30.22388c-16.791045-6.716418-36.940299 3.358209-41.977612 20.149253-6.716418 16.791045 3.358209 36.940299 20.149254 41.977612L799.126866 783.626866c8.395523 3.358209 18.470149 1.679105 25.186567-1.679105 8.395523-3.358209 13.432836-11.753731 16.791044-20.149254l36.940299-110.820895c6.716418-16.791045-3.358209-36.940299-21.828358-41.977612h-8.395523z"  horiz-adv-x="1024" />
      
      <glyph glyph-name="back" unicode="&#58881;" d="M914.032529 51.98924c-9.350349 0-17.520749 6.566067-19.411641 15.886669-0.256812 1.240434-13.23823 60.519463-68.598642 118.739515C755.531721 260.751891 646.460843 301.542416 509.700836 305.113l0-161.072897c0-7.443591-4.175431-14.282336-10.802975-17.641719-6.642416-3.38913-14.600624-2.784282-20.637201 1.603342L98.319198 403.426515c-5.129306 3.722291-8.185274 9.683511-8.185274 16.022512s3.026221 12.30022 8.139662 16.037385l379.942453 276.69596c6.036577 4.387624 14.01065 5.02321 20.666949 1.648954 6.642416-3.38913 10.817848-10.213 10.817848-17.671465l0-171.028094c24.480463-0.892398 67.176754-4.523467 116.682041-17.671465 78.796769-20.909878 144.203599-57.403011 194.434704-108.451157 77.298531-78.584576 115.335512-188.790782 113.035109-327.531914-0.151708-10.136651-7.928461-18.488505-18.019501-19.396768C915.228342 52.019978 914.622503 51.98924 914.032529 51.98924zM489.896539 344.995263c87.828829 0 165.687587-13.829196 231.457326-41.092949 53.302938-22.089827 98.767646-53.015387 135.155674-91.868417 11.952185-12.739479 22.119574-25.508704 30.773852-37.824789-13.19361 80.339626-44.875725 146.336431-94.713184 196.990929C685.298999 480.257033 526.479903 485.778993 495.735797 485.778993c-3.283034 0-5.083694-0.075358-5.113442-0.075358-5.386119-0.181454-10.605656 1.815534-14.479654 5.537826-3.873008 3.752038-6.067316 8.896217-6.067316 14.282336L470.075386 657.215608 143.662936 419.509511 470.076377 182.893133 470.076377 325.175101C470.076377 336.128792 478.941856 344.995263 489.896539 344.995263z"  horiz-adv-x="1025" />
      
      <glyph glyph-name="shengzhi" unicode="&#58882;" d="M754.312805 191.104248c6.117188-6.078461 15.976044-6.078461 22.052857 0 6.117188 6.075989 6.117188 15.97522 0 22.093231l-71.547364 71.548188c-6.118835 6.156738-16.017242 6.156738-22.132782 0.03955l-71.591034-71.587738c-6.075165-6.118011-6.11554-16.016418 0-22.13443 6.117188-6.075989 15.977692-6.036438 22.093232 0l44.990661 44.950287v-155.611725c0-8.611359 6.960114-15.613495 15.611847-15.613495 8.570984-0.040375 15.574768 6.960114 15.574768 15.573945v155.731201l44.947815-44.989014zM187.032654 33.316406v45.311188c0 154.126099 118.952271 281.127777 270.460602 295.412201l-0.039551 0.039551h0.402923c9.294434 0.884949 18.711639 1.37027 28.207947 1.370269 1.408997 0 2.818817-0.082397 4.265717-0.121948 33.48056 2.616119 84.185486 10.503204 110.66391 34.124909l12.999847 10.06073c50.662903 39.598572 79.7146 98.632233 79.7146 162.090637 0 113.641754-93.197296 206.116425-207.724823 206.116424s-207.724823-92.47467-207.724823-206.116424c0-63.458405 29.053345-122.492065 79.75827-162.090637l12.957001-10.06073-15.290497-6.075989C220.715088 349.854492 133.471008 222.370789 133.471008 78.628418v-71.828339c0-14.608246 11.992126-26.520447 26.800598-26.520446h391.145691a268.007629 268.007629 0 0 0-32.354187 53.036773H187.032654z m144.746795 548.286713c0 84.38736 69.215515 153.079651 154.205201 153.079651 85.069611 0 154.204376-68.692291 154.204376-153.079651 0-84.425262-69.134766-153.156281-154.204376-153.156281-84.989685 0-154.2052 68.731018-154.205201 153.156281zM693.507599 340.882233c90.421326 0 163.984131-73.399658 163.984131-163.582032 0-90.420502-73.561981-163.982483-163.984131-163.982482-90.139526 0-163.540009 73.561157-163.540009 163.982482 0.000824 90.182373 73.400482 163.582031 163.540009 163.582032m0 33.03891c-108.531464 0-196.578094-88.129028-196.578095-196.620942 0-108.689667 88.046631-197.019745 196.578095-197.019744 108.693787 0 197.021393 88.330078 197.021393 197.019744 0.000824 108.491913-88.327606 196.620941-197.021393 196.620942z"  horiz-adv-x="1024" />
      
      <glyph glyph-name="yunyingshezhi" unicode="&#58909;" d="M838.25 265.875c-11.25 22.5-5.625 45 11.25 56.25-28.125 28.125-61.875 50.625-106.875 61.875 0-22.5-22.5-39.375-45-39.375s-39.375 16.875-45 39.375c-33.75-11.25-67.5-28.125-95.625-61.875 16.875-11.25 22.5-39.375 11.25-56.25-11.25-22.5-33.75-28.125-56.25-16.875-5.625-16.875-11.25-39.375-11.25-61.875s5.625-39.375 11.25-61.875c22.5 5.625 45 0 56.25-16.875 11.25-22.5 5.625-45-11.25-56.25 28.125-28.125 61.875-50.625 106.875-61.875 0 22.5 22.5 39.375 45 39.375s39.375-16.875 45-39.375c39.375 11.25 78.75 28.125 106.875 61.875-16.875 11.25-22.5 39.375-11.25 56.25 11.25 22.5 33.75 28.125 56.25 16.875 5.625 16.875 11.25 39.375 11.25 61.875s-5.625 39.375-11.25 61.875c-28.125-11.25-56.25-5.625-67.5 16.875z m-129.375-157.5c-45 0-78.75 33.75-78.75 78.75s33.75 78.75 78.75 78.75 78.75-33.75 78.75-78.75-33.75-78.75-78.75-78.75zM343.25 552.75c0 33.75-22.5 56.25-56.25 56.25H174.5c-33.75 0-56.25-22.5-56.25-56.25v-393.75c0-33.75 22.5-56.25 56.25-56.25h112.5c33.75 0 56.25 22.5 56.25 56.25V552.75zM174.5 552.75h112.5v-393.75H174.5V552.75z m731.25-56.25v-84.375c0-16.875-11.25-28.125-28.125-28.125s-28.125 11.25-28.125 28.125V496.5h-112.5v-28.125c0-16.875-11.25-28.125-28.125-28.125s-28.125 11.25-28.125 28.125V496.5c0 33.75 22.5 56.25 56.25 56.25h112.5c33.75 0 56.25-22.5 56.25-56.25z m-506.25-365.625V721.5c0 33.75 22.5 56.25 56.25 56.25h112.5c33.75 0 56.25-22.5 56.25-56.25v-253.125c0-16.875-11.25-28.125-28.125-28.125S568.25 451.5 568.25 468.375V721.5H455.75v-590.625c0-16.875-11.25-28.125-28.125-28.125s-28.125 11.25-28.125 28.125z m112.5-112.5c0-16.875-11.25-28.125-28.125-28.125h-337.5c-16.875 0-28.125 11.25-28.125 28.125s11.25 28.125 28.125 28.125h337.5c16.875 0 28.125-11.25 28.125-28.125z"  horiz-adv-x="1024" />
      
      <glyph glyph-name="duihua" unicode="&#58918;" d="M741.915678 131.889406c81.366101 45.202119 135.244068 123.258051 135.244068 212.15212 0 56.219491-21.779237 107.984746-58.183475 150.006355a340.630932 340.630932 0 0 1 4.084323 49.957628c0 7.760594-0.858051 15.330509-1.372882 22.976695 67.362712-55.250847 109.571186-133.09322 109.571187-219.611441 0-97.039831-53.035169-183.211017-135.247882-238.728814v-151.219068l-151.619491 92.017373a407.452119 407.452119 0 0 0-64.773306-5.365678c-104.159746 0-170.397458 39.279661-234.789406 101.352966 10.597881-0.602542 21.142373-1.361441 31.923305-1.361441 15.101695 0 29.997458 0.736017 44.740677 1.90678 50.838559-34.482204 88.066526-55.23178 158.125424-55.23178a346.766949 346.766949 0 0 1 69.978813 7.341103l92.314831-60.662289v94.469491z m-297.541525 65.494068a802.849576 802.849576 0 0 0-90.980085 7.024577L200.93178 117.394068v151.211441c-70.676695 59.308474-108.198305 141.69661-108.198306 238.728813 0 167.499153 157.164406 303.284746 351.644493 303.284746 161.66822 0 324.587288-135.785594 324.587287-303.284746s-130.385594-309.950847-324.591101-309.950848z m-97.032204 60.666102c22.5-4.622033 72.884746-7.337288 97.036018-7.337288 164.326271 0 270.488136 113.396186 270.488134 253.292797s-135.983899 253.292796-270.488134 253.292796c-168.975 0-297.541526-113.407627-297.541526-253.292796 0-88.882627 42.208474-159.35339 108.194491-212.140679v-94.480932z m245.802966 205.958898a39.99661 39.99661 0 1 0 40.576271 39.996611 40.286441 40.286441 0 0 0-40.576271-39.996611z m-162.293644 0a39.99661 39.99661 0 1 0 40.572458 39.996611A40.290254 40.290254 0 0 0 430.851271 464.008474z m-162.297457 0a39.99661 39.99661 0 1 0 40.576271 39.996611 40.286441 40.286441 0 0 0-40.576271-39.996611z"  horiz-adv-x="1024" />
      
      <glyph glyph-name="kxinggetedian" unicode="&#58905;" d="M721.025879 739.957031a146.337891 146.337891 0 0 0 146.189575-146.140136 146.337891 146.337891 0 0 0-146.189575-146.189576H578.791382a4.400024 4.400024 0 0 0-4.350586 4.301148v141.888428A146.68396 146.68396 0 0 0 721.025879 739.957031z m0 39.550781a185.740356 185.740356 0 0 1-185.690918-185.690917v-142.283936c0-24.076538 19.775391-43.851929 43.851929-43.851929h142.234497a185.740356 185.740356 0 0 1 185.690918 185.740357A186.679688 186.679688 0 0 1 721.025879 779.507813zM302.183105 779.507813A185.987549 185.987549 0 0 1 116.492188 593.816895a185.987549 185.987549 0 0 1 185.690917-185.740357h142.283936a44.000244 44.000244 0 0 1 43.851929 43.851929v141.888428A186.086426 186.086426 0 0 1 302.183105 779.507813z m418.842774-418.447266H578.791382a44.000244 44.000244 0 0 1-43.851929-43.851929v-142.234497a185.740356 185.740356 0 0 1 185.690918-185.690918 185.987549 185.987549 0 0 1 185.690918 185.690918c0 102.337646-82.957764 186.086426-185.29541 186.086426z m-276.558838 0H302.183105A185.740356 185.740356 0 0 1 116.492188 175.369629a185.987549 185.987549 0 0 1 185.690917-185.690918 185.987549 185.987549 0 0 1 185.740357 185.690918V317.604126a43.357544 43.357544 0 0 1-43.505859 43.505859z"  horiz-adv-x="1024" />
      
      <glyph glyph-name="shenqing" unicode="&#58981;" d="M370.059687-4.725H229.709375c-42.793125 0-77.608125 34.815-77.608125 77.608125V694.414688c0 42.793125 34.815 77.608125 77.608125 77.608125h503.815313c42.793125 0 77.607187-34.815 77.607187-77.608125v-181.130625c0-16.568438-13.431563-30-30-30s-30 13.431563-30 30V694.414688c0 9.544688-8.063437 17.608125-17.607187 17.608125H229.709375c-9.544688 0-17.608125-8.063437-17.608125-17.608125v-621.530625c0-9.544688 8.063437-17.608125 17.608125-17.608125h140.350313c16.568438 0 30-13.431563 30-30s-13.431563-30.000937-30-30.000938zM611.923437 559.921875H306.078125c-16.568438 0-30 13.431563-30 30s13.431563 30 30 30h305.845312c16.568438 0 30-13.431563 30-30s-13.431563-30-30-30zM570.675313 412.974375H306.313438c-16.568438 0-30 13.431563-30 30s13.431563 30 30 30h264.361874c16.568438 0 30-13.431563 30-30s-13.431563-30-30-30zM484.43 262.982813h-177.178125c-16.568438 0-30 13.431563-30 30s13.431563 30 30 30h177.178125c16.568438 0 30-13.431563 30-30s-13.431563-30-30-30zM456.979062-0.3525l-2.95875 137.461875c-5.16375 16.320937 2.676563 33.124688 12.149063 43.756875l246.692813 276.91125c6.9 7.745625 16.341562 12.556875 26.582812 13.546875 10.94625 1.058437 21.899062-2.484375 30.027188-9.725625l101.691562-90.594375c16.335938-14.552812 17.571562-39.932812 2.769375-56.612812l-61.937812-70.205625c-10.96125-12.425625-29.920313-13.611562-42.343125-2.649375-12.424687 10.960313-13.611562 29.919375-2.649375 42.343125l49.182187 55.7475-71.487188 63.68625-230.974687-259.268438a57.0375 57.0375 0 0 0 0.255-4.329375l1.570313-72.943125 63.794062 7.33125a76.4325 76.4325 0 0 1 3.043125 3.226875l0.211875 0.235313 126.587813 139.123124c11.150625 12.253125 30.122812 13.149375 42.379687 1.999688 12.254062-11.151563 13.149375-30.124688 1.999688-42.379688L627.075312 37.295625c-3.07875-3.448125-7.789688-8.38125-12.945937-12.55875-11.8125-9.569062-22.28625-11.524688-30.496875-10.53375l-126.653438-14.555625z m-1.973437 134.744063a0.190312 0.190312 0 0 1 0.010312-0.024375c-0.004687 0.0075-0.0075 0.015938-0.010312 0.024375zM784.815313 234.032812c-7.832813 0-15.657187 3.04875-21.540938 9.117188l-92.685 95.592187c-11.533125 11.895-11.239688 30.887812 0.655313 42.421875 11.895 11.53125 30.886875 11.239688 42.420937-0.655312l92.685-95.592188c11.533125-11.895 11.239688-30.887812-0.655312-42.421875-5.826562-5.650313-13.3575-8.461875-20.88-8.461875z"  horiz-adv-x="1024" />
      
      <glyph glyph-name="yingxiaolei" unicode="&#58914;" d="M154.058029 83.137728h207.576604V416.742986l-56.836451 39.5384L154.058029 328.275814z m256.505376 0H619.128469V414.766065L520.282467 330.252734 410.563405 388.571875zM668.55147 454.304466v-371.166738h207.576604V451.833316l-89.949862 116.638282zM188.1599 421.191056l113.178673 94.397931L516.822857 384.123805l256.011145 240.690015 2.47115 2.96538L816.820473 581.815809l70.674891 197.692004-197.692004-64.249902 49.423001-49.423-229.816954-211.530445L295.902042 581.815809 152.575339 463.694837a27.67688 27.67688 0 0 1-3.45961-39.044172 27.18265 27.18265 0 0 1 39.044171-3.459609z m682.037413-376.603268H153.06957a28.171111 28.171111 0 1 1 0-55.847991h717.127743a28.171111 28.171111 0 1 1 0 55.847991z"  horiz-adv-x="1024" />
      
      <glyph glyph-name="keji" unicode="&#58980;" d="M545.980219 164.638184h-0.041199c-6.583557 0-13.259399 0.065918-19.841309 0.190338-114.921387 2.207428-222.87854 23.258331-303.995544 59.275085C135.94903 262.360748 89.081354 313.906128 90.143457 369.234375c1.031616 53.765991 47.465057 102.508209 130.756531 137.242035 78.058411 32.551941 182.073669 50.47998 292.876007 50.47998 6.568726 0 13.243744-0.063446 19.835541-0.186218 114.923859-2.202484 222.881012-23.253387 304.00296-59.279205 86.149017-38.257141 133.019989-89.796753 131.95459-145.121704-1.02832-53.774231-47.471649-102.512329-130.759003-137.246979-78.042755-32.553589-182.052246-50.4841-292.829041-50.4841m-32.205047 355.264892c-106.023285 0-204.971924-16.914551-278.616303-47.62738C167.261713 443.958984 127.913629 406.145142 127.188531 368.520813c-0.744873-38.889954 39.331604-79.188904 109.955292-110.549377 76.696381-34.059814 179.572083-53.982697 289.662506-56.092072 6.346252-0.125244 12.781494-0.18457 19.135987-0.18457h0.037903c106.002686 0 204.933197 16.914551 278.575103 47.622436 67.888916 28.315063 107.242767 66.132202 107.965393 103.759827 0.746521 38.895721-39.329956 79.193024-109.951172 110.546081-76.703796 34.068054-179.577026 53.985168-289.664978 56.096192a1008.837433 1008.837433 0 0 1-19.127746 0.183746M713.827142-22.643829c-48.759521 0-107.962097 26.647339-171.216156 77.053161-62.492706 49.801849-123.456116 118.383728-176.281128 198.320801-63.371887 95.887573-107.277374 196.747009-123.618438 283.982849-17.366089 92.653473-1.507874 160.484711 44.661895 190.997315C303.969812 738.674927 323.658685 744.241699 345.880457 744.241699c48.760345 0 107.969513-26.640747 171.215332-77.053161 62.496826-49.805969 123.457764-118.385376 176.281951-198.325745 63.366943-95.889221 107.266663-196.736298 123.618439-283.976257 17.361145-92.660889 1.499634-160.486359-44.666839-190.999787-16.598145-10.967926-36.277954-16.530579-58.502198-16.530578M345.881281 707.187561c-14.833191 0-27.643524-3.498596-38.075043-10.393616-32.45636-21.449707-42.90683-77.312714-28.675965-153.259277 15.456116-82.493042 57.404663-178.514099 118.116761-270.370789 50.709869-76.741699 108.964874-142.359741 168.458313-189.776184 55.8078-44.479797 108.418579-68.977386 148.122619-68.977386 14.831543 0 27.644348 3.49942 38.071747 10.387024 32.454712 21.451355 42.912598 77.314362 28.672669 153.265869-15.45282 82.488098-57.399719 178.507507-118.107697 270.368317-50.713989 76.740875-108.964874 142.363861-168.461609 189.777008-55.814392 44.478149-108.415283 68.979034-148.122619 68.979034M367.18432-36.69754c-17.975006 0-34.536072 4.024292-49.334656 12.173401-48.488434 26.680298-69.78241 93.00119-59.971344 186.762085 9.237579 88.269104 44.835754 192.346985 100.243103 293.048217C418.595392 565.189545 496.419794 658.570587 571.640436 711.484589c8.371582 5.888947 19.931946 3.878448 25.81842-4.489014 5.887299-8.374054 3.878448-19.927826-4.495605-25.816773-70.767059-49.782898-144.528442-138.629608-202.37146-243.761352-53.077972-96.472595-87.122955-195.567902-95.862854-279.040649-8.03952-76.848816 6.896667-131.686798 40.979553-150.436341 34.082062-18.752014 88.394348-2.022034 149.011688 45.906098 65.829803 52.052124 131.317657 133.853027 184.393982 230.324798 57.843018 105.128448 93.41153 214.986511 97.581665 301.413208 0.498505 10.220581 9.177429 18.109314 19.401306 17.614929 10.218933-0.494385 18.107666-9.179077 17.616577-19.399658-4.432983-91.870697-41.657684-207.592163-102.130828-317.493072-55.404053-100.703705-124.261963-186.480286-193.881226-241.53003-51.371521-40.617004-99.606171-61.474274-140.517334-61.474273M630.081659 712.278076c0-24.389648 10.037659-48.625214 27.282623-65.87677 17.245789-17.244965 41.485474-27.281799 65.878418-27.281799 24.391296 0 48.626038 10.036835 65.87265 27.281799 17.249084 17.251556 27.283447 41.48877 27.283448 65.87677 0 24.391296-10.034363 48.631805-27.283448 65.87677C771.869562 795.396515 747.633997 805.439941 723.243524 805.439941c-24.392944 0-48.633453-10.043427-65.878418-27.283447-17.245789-17.245789-27.281799-41.486298-27.281799-65.87677"  horiz-adv-x="1068" />
      
      <glyph glyph-name="kefu" unicode="&#58982;" d="M586.355469 254.431641c-22.623047 0-43.822266 1.265625-63.28125 3.638672-7.910156 0.632813-14.396484 4.113281-19.300781 10.599609-4.904297 6.486328-6.802734 13.605469-6.011719 21.515625 0.949219 7.910156 4.429688 14.554688 10.599609 19.775391 6.169922 5.220703 13.130859 7.119141 21.199219 6.011718 26.894531-1.898438 54.105469-2.53125 81.632812-1.898437 27.527344 0.632813 53.472656 4.587891 77.519532 11.865234 24.205078 7.277344 39.392578 17.085938 45.404297 29.425781 3.638672 7.277344 9.333984 12.339844 16.927734 15.1875 7.59375 2.689453 15.1875 2.53125 22.464844-0.949218 7.435547-3.322266 12.339844-8.859375 15.1875-16.611328 2.689453-7.59375 2.214844-15.1875-1.423828-22.464844-24.363281-50.783203-91.441406-76.253906-200.917969-76.095703z m263.408203 29.267578c-7.910156 0-14.871094 2.847656-20.724609 8.701172-5.853516 5.853516-8.701172 12.65625-8.701172 20.724609V414.058594l-39.550782 14.71289c-12.814453 4.271484-19.300781 13.447266-19.300781 27.527344 0 72.773438-25.787109 135.105469-77.519531 186.837891-51.732422 51.732422-114.064453 77.519531-186.837891 77.519531s-135.105469-25.787109-186.83789-77.519531c-51.732422-51.732422-77.519531-114.064453-77.519532-186.837891 0-4.904297-1.107422-9.492188-3.164062-13.763672-2.056641-4.271484-5.0625-7.59375-8.701172-10.125l-17.402344-12.814453v-106.470703c0-7.910156-2.847656-14.871094-8.701172-20.724609-5.853516-5.853516-12.65625-8.701172-20.724609-8.701172-7.910156 0-14.871094 2.847656-20.724609 8.701172-5.853516 5.853516-8.701172 12.65625-8.701172 20.724609v122.132812c0 3.005859 0.474609 6.169922 1.423828 9.175782 0.949219 3.005859 2.373047 5.853516 4.113281 8.226562 1.898438 2.373047 3.955078 4.587891 6.486328 6.486328l17.402344 11.865235c4.271484 85.746094 37.652344 158.519531 99.984375 218.478515C336.710938 749.449219 411.066406 779.507813 497.287109 779.507813c56.320313 0 108.527344-13.447266 156.462891-40.341797 48.09375-26.894531 86.695313-63.439453 116.121094-109.634766 29.425781-46.195313 45.878906-97.136719 49.517578-152.824219l40.341797-13.763672c12.814453-4.904297 19.300781-14.080078 19.300781-27.527343v-122.132813c0-7.910156-2.847656-14.871094-8.701172-20.724609-5.695313-5.853516-12.498047-8.701172-20.566406-8.859375zM614.832031 151.599609v9.175782c29.425781 22.623047 48.884766 44.929688 58.69336 67.078125-11.707031-1.898438-38.601563-2.689453-80.841797-2.689453h-16.611328c-6.802734 0-12.181641-0.158203-16.611329-0.47461-4.271484-0.316406-8.859375-0.316406-13.763671 0-4.904297 0.316406-9.175781 0.474609-12.814454 0.47461s-7.119141 0.316406-10.125 0.949218c-15.978516 1.898438-29.109375 9.492188-39.550781 22.939453-10.441406 13.447266-14.712891 28.476563-12.814453 44.929688 1.898438 15.978516 9.175781 28.951172 21.990234 39.076172 12.814453 10.125 27.210938 14.238281 43.189454 12.339844 33.697266-3.005859 66.128906-3.164063 97.294921-0.47461 31.166016 2.689453 54.105469 7.119141 68.81836 13.289063 0.632813 12.814453 0.949219 38.601563 0.949219 77.044922 0 30.533203-4.587891 58.535156-13.763672 83.53125-9.175781 25.154297-22.306641 46.353516-39.550782 63.755859C632.234375 599.947266 611.193359 613.394531 586.355469 622.886719c-24.837891 9.492188-52.207031 14.554688-82.107422 15.1875h-18.351563c-24.521484-0.632813-46.986328-3.955078-67.552734-10.125-20.566406-6.169922-38.759766-15.029297-54.580078-26.578125-15.978516-11.548828-29.425781-25.470703-40.341797-41.765625-11.074219-16.294922-19.300781-34.962891-24.837891-56.003906-5.537109-21.041016-8.226563-44.138672-8.226562-69.292969 0-21.357422 0.158203-39.076172 0.474609-52.839844 0.316406-13.763672 2.214844-32.589844 5.53711-56.478516 3.322266-23.888672 7.910156-44.296875 13.763672-61.541015 5.853516-17.085938 14.712891-35.279297 26.578125-54.580078s26.103516-35.279297 42.714843-48.251953v-9.175782c-61.224609-9.175781-111.058594-25.470703-149.660156-48.568359C191.164063 79.617188 171.863281 52.40625 171.863281 21.240234c0-13.447266 6.486328-22.939453 19.300781-28.476562 3.638672-1.898438 7.277344-2.689453 11.074219-2.689453h576.492188c4.904297 0 10.283203 1.582031 16.136718 4.58789 5.853516 3.005859 10.599609 6.960938 14.238282 11.865235 3.638672 4.904297 5.537109 9.808594 5.537109 14.71289 0 31.166016-18.351563 58.376953-55.054687 81.632813-36.544922 23.255859-84.955078 39.392578-144.75586 48.726562z m0 0"  horiz-adv-x="1024" />
      
      <glyph glyph-name="sousuo" unicode="&#58902;" d="M679.478194 691.305205c-65.671562 65.671562-153.181275 101.963741-246.032694 101.963741-93.008528 0-180.361132-36.13507-246.032695-101.963741s-101.963741-153.181275-101.963741-246.032695c0-93.008528 36.13507-180.361132 101.963741-246.032694s153.181275-101.963741 246.032695-101.963742c81.382462 0 158.365872 27.651184 220.423927 78.71161l164.178906-164.178906c13.511374-13.511374 35.349525-13.511374 48.860899 0 13.511374 13.511374 13.511374 35.349525 0 48.860899L702.730326 224.848583c50.903316 62.058055 78.711609 139.041465 78.71161 220.423927 0 93.008528-36.292179 180.361132-101.963742 246.032695z m-48.860899-443.20449c-108.719428-108.719428-285.624163-108.719428-394.343591 0-108.719428 108.719428-108.719428 285.624163 0 394.343591 108.719428 108.719428 285.624163 108.719428 394.343591 0 108.719428-108.719428 108.719428-285.624163 0-394.343591z"  horiz-adv-x="1024" />
      
      <glyph glyph-name="fenxiang" unicode="&#59568;" d="M832 364a30 30 0 0 0 60 0v-250c0-60.75-49.25-110-110-110H242c-60.75 0-110 49.25-110 110V624c0 60.75 49.25 110 110 110h260a30 30 0 0 0 0-60H242a50 50 0 0 1-50-50v-510a50 50 0 0 1 50-50h540a50 50 0 0 1 50 50V364z m-39.43 260l-84.18 89.44a30 30 0 0 0 43.7 41.12l131.76-140C901.87 595.42 888.29 564 862 564H711.41C634.84 564 572 497.24 572 414v-180a30 30 0 1 0-60 0V414c0 115.59 88.86 210 199.41 210h81.16z"  horiz-adv-x="1024" />
      
      <glyph glyph-name="jiangxiang" unicode="&#58972;" d="M513.536-20.48c-172.032 0-311.808 139.776-311.808 311.808s139.776 311.808 311.808 311.808c172.032 0 311.808-139.776 311.808-311.808S685.568-20.48 513.536-20.48z m0 571.392c-142.848 0-259.584-116.224-259.584-259.584s116.224-259.584 259.584-259.584c142.848 0 259.584 116.224 259.584 259.584S656.384 550.912 513.536 550.912zM760.832 537.6c-7.168 0-14.336 3.072-19.456 8.704-9.728 10.752-8.704 27.136 2.048 36.864l32.256 29.184v96.256H251.392v-95.744l29.184-26.112c10.752-9.728 11.776-26.112 2.048-36.864-9.728-10.752-26.112-11.776-36.864-2.048l-37.888 33.792c-5.632 5.12-8.704 12.288-8.704 19.456V734.72c0 14.336 11.776 26.112 26.112 26.112h576.512c14.336 0 26.112-11.776 26.112-26.112v-133.632c0-7.168-3.072-14.336-8.704-19.456l-40.96-36.864c-4.608-4.608-10.752-7.168-17.408-7.168zM417.28 623.104c-14.336 0-26.112 11.776-26.112 26.112V734.72c0 14.336 11.776 26.112 26.112 26.112s26.112-11.776 26.112-26.112v-85.504c0-14.336-11.776-26.112-26.112-26.112z m190.976 0c-14.336 0-26.112 11.776-26.112 26.112V734.72c0 14.336 11.776 26.112 26.112 26.112s26.112-11.776 26.112-26.112v-85.504c0-14.336-11.776-26.112-26.112-26.112zM614.4 117.76c-3.584 0-7.68 1.024-11.264 3.072l-93.184 50.688-94.72-48.128c-7.68-4.096-17.408-3.072-24.576 2.048s-10.752 14.336-8.704 23.04l19.456 104.448-74.752 75.264c-6.144 6.144-8.192 15.36-5.632 24.064s10.24 14.336 18.944 15.36L445.44 381.44l48.64 94.72c4.096 7.68 12.288 12.8 20.992 12.8s16.896-5.12 20.48-13.312l45.568-95.744 104.96-16.896c8.704-1.536 15.872-7.68 18.432-15.872s0-17.408-6.144-23.552l-77.312-73.216 16.384-104.96c1.536-8.704-2.56-17.408-9.728-22.528-4.096-3.584-8.704-5.12-13.312-5.12zM510.464 220.672c3.584 0 7.68-1.024 11.264-3.072l62.464-34.304-11.264 70.656c-1.024 7.68 1.536 15.36 7.168 20.48l51.712 49.152-70.656 11.264c-7.68 1.024-13.824 6.144-17.408 12.8l-30.72 64.512-31.744-62.976c-3.584-6.656-10.24-11.264-17.92-12.288l-70.656-9.216 50.176-50.688c5.632-5.632 7.68-13.312 6.144-20.48l-13.312-70.144 63.488 32.256c4.096 1.536 7.68 2.048 11.264 2.048z"  horiz-adv-x="1024" />
      
      <glyph glyph-name="douyin" unicode="&#58990;" d="M511.789379 384.210832m-421.664168 0a421.664168 421.664168 0 1 1 843.328336 0 421.664168 421.664168 0 1 1-843.328336 0ZM512.211043 528.841642c0.421664 44.274737 0 88.971139 0.421664 133.245876h90.657797c-0.421664-8.011619 0.843328-15.601574 2.10832-23.191529l-61.984633-5.059969 5.05997-355.04123c0.421664-15.17991-10.541604-49.334708-18.131559-62.406297-11.806597-20.23988-47.648051-38.793104-71.261244-40.901424-14.758245-1.264992-25.721514 2.529985-39.214768 9.698276-10.11994 5.481634-15.601574 35.841454-18.553223 43.853073 23.191529-13.071589 53.551349-11.806597 75.89955 2.95165 21.504873 13.493253 35.841454 38.37144 35.841454 64.514617-0.843328 77.586207-0.843328 155.172414-0.843328 232.336957z m149.269115 25.721514c12.649925-8.011619 26.986507-14.336581 41.744753-17.288231 8.854948-2.108321 17.288231-2.951649 26.143179-2.951649v-24.456522c-26.143178 5.903299-82.646177 22.348201-67.887932 44.696402zM348.605346 441.135494c32.468141 20.23988 72.104573 28.673164 110.054348 23.19153v-27.829835c-35.41979-0.843328-64.936282-16.023239-93.609446-37.106447-21.504873-16.023239-36.263118-32.468141-47.648051-56.924663-10.963268-23.191529-15.601574-42.588081-15.17991-68.309594 0-28.2515 7.589955-48.49138 21.083209-73.369566 6.324963-11.384932 18.553224-28.673164 15.601574-41.323088-19.396552 13.493253-35.41979 31.624813-47.226387 51.864693-16.023239 26.986507-24.034857 59.032984-23.191529 90.657795 1.264992 29.094828 9.276612 57.767991 24.878186 83.067841 13.493253 22.769865 32.889805 42.588081 55.238006 56.081334zM538.354221 638.895989h67.887931c10.541604-18.13156 9.698276-24.878186 15.601574-36.263118 9.276612-18.13156 16.444903-24.878186 36.684783-45.118066 1.264992-0.843328 2.108321-1.686657 2.951649-2.951649 17.709895-20.23988 41.744753-34.576461 67.887932-40.479761 15.17991-10.963268 4.638306-55.238006 4.638305-78.851198-44.274737-0.421664-89.392803 16.866567-125.234258 43.009745 0-56.502998 0-108.789355 0.421664-165.714019 0-7.589955 0.421664-14.758245 0-22.769865-2.108321-27.408171-14.758245-67.466266-28.673163-91.07946-11.806597-20.661544-27.829835-39.214768-47.226387-53.551349-24.878186-18.553224-55.238006-28.673164-86.01949-29.516492-15.601574-0.421664-31.624813 0.421664-46.804723 3.794978-21.504873 4.638306-42.166417 26.143178-60.297975 38.793103l-1.264993 1.264993c-8.854948 9.276612-16.866567 19.818216-22.769866 31.624812-13.493253 24.456521-21.083208 52.286357-21.083208 80.537856-0.421664 25.721514 5.05997 51.443029 16.023239 74.634558 11.384932 24.456521 28.2515 46.383058 49.334708 62.406296 28.2515 21.083208 62.406297 33.311469 97.826087 34.154799 9.698276-4.638306 2.951649-75.89955 2.951648-75.899551-11.384932 3.794977-26.564843 2.529985-38.371439-0.421664-14.336581-2.951649-21.926537-11.384932-32.889805-20.661545-6.746627-5.903299-12.649925-12.228261-16.444902-20.239879-7.168291-13.493253-6.746627-15.17991-5.481635-30.35982 1.686657-14.336581 4.216641-29.938156 13.914918-40.901424 6.324963-8.011619 10.541604-20.23988 18.974887-25.721515 6.746627-10.963268 15.601574-18.974888 25.299851-23.613193 13.493253-7.168291 28.673164-10.11994 43.431409-8.854948 23.613193 1.686657 45.53973 16.023239 57.346326 36.684783 7.589955 13.493253 10.963268 30.781484 10.963269 45.53973 0 124.39093 0.421664 360.522863 0.421664 360.522863zM605.398824 638.895989c8.011619-0.421664 15.601574 0 24.034858 0 0-26.143178 8.433284-52.708021 23.613193-74.212893 2.108321-2.951649 3.794977-5.481634 5.903298-7.589955-17.288231 10.541604-30.781484 26.986507-40.058096 45.118066-5.903299 10.963268-10.541604 23.613193-13.493253 36.684782z m123.969266-124.812594c8.854948-2.108321 17.288231-2.951649 26.143178-2.951648v-91.501125c-44.696402-0.421664-89.392803 14.336581-126.077586 40.901424v-181.737256c0.421664-13.914917-0.843328-27.408171-3.794978-40.901424-8.854948-40.901424-32.468141-77.164542-66.622939-101.621065-18.13156-13.071589-38.37144-21.926537-59.876311-26.564842-26.143178-5.903299-53.129685-5.481634-78.429536 1.264992-30.35982 8.011619-59.032984 24.878186-80.116191 48.069716 18.13156-13.071589 38.793104-21.504873 60.71964-26.143179 15.17991-3.373313 31.203148-4.216641 46.804722-3.794977 30.781484 0.843328 61.141305 10.963268 86.019491 29.516492 19.396552 14.336581 34.998126 32.468141 47.226387 53.551349 13.914917 24.034857 22.348201 51.021364 24.456521 78.429535 0.421664 7.589955 0.421664 14.758245 0 22.769865-0.843328 56.081334-0.843328 112.584333-0.843328 169.087331 36.263118-26.143178 80.537856-40.058096 124.812594-39.636431-0.421664 23.613193 0 47.648051-0.421664 71.261243zM458.659694 443.243816c8.854948 0 18.13156-0.421664 26.564842-1.686657v-94.031109c-12.649925 4.216641-26.564843 4.638306-39.636431 1.686656-24.878186-5.481634-45.53973-24.456521-54.394678-48.491379-8.854948-23.613193-5.481634-51.443029 9.276611-71.682909-8.854948 5.05997-16.023239 11.806597-22.348201 19.818216-9.276612 10.963268-15.601574 25.29985-17.28823 39.636432-1.686657 14.758245 0.843328 30.781484 8.011618 43.853073 3.794977 8.011619 9.698276 14.758245 16.444903 20.661545 10.963268 9.276612 24.878186 15.17991 38.37144 18.974887 11.384932 2.529985 23.613193 2.951649 34.576462-0.843328 0.421664 3.794977 0.421664 62.827961 0.421664 72.104573z"  horiz-adv-x="1024" />
      
      <glyph glyph-name="gongyinglian" unicode="&#58938;" d="M873.941333 403.605333c-8.618667-137.301333-93.632-253.866667-213.013333-307.712A149.333333 149.333333 0 0 0 362.666667 106.666667a149.333333 149.333333 0 0 0 282.346666 67.968 285.098667 285.098667 0 0 1 148.778667 209.408 191.168 191.168 0 0 1 80.149333 19.562666zM512 192a85.333333 85.333333 0 1 1 77.397333-121.301333l0.789334 1.749333 1.706666 4.117333a84.736 84.736 0 0 1 3.349334 11.221334l-0.32-1.365334c0.32 1.365333 0.64 2.730667 0.874666 4.117334l-0.554666-2.752a84.906667 84.906667 0 0 1 0.981333 5.013333l-0.426667-2.261333c0.298667 1.514667 0.554667 3.072 0.768 4.629333l-0.341333-2.346667c0.213333 1.472 0.426667 2.965333 0.597333 4.48l-0.256-2.133333c0.512 3.754667 0.768 7.594667 0.768 11.498667l-0.149333 5.12a86.08 86.08 0 0 1-0.448 5.12l0.362667-3.754667a85.632 85.632 0 0 1-0.512 4.821333l0.149333-1.066666a84.992 84.992 0 0 1-2.282667 11.797333l0.341334-1.28a84.693333 84.693333 0 0 1-1.322667 4.693333l0.981333-3.413333a84.672 84.672 0 0 1-1.365333 4.629333l0.384-1.194666a84.693333 84.693333 0 0 1-1.6 4.629333l1.216-3.434667a84.693333 84.693333 0 0 1-1.728 4.778667l0.512-1.344a84.885333 84.885333 0 0 1-5.098667 11.029333l0.725334-1.344a85.205333 85.205333 0 0 1-2.218667 3.968l1.493333-2.624A85.312 85.312 0 0 1 512 192zM234.666667 725.333333a149.333333 149.333333 0 1 0-7.637334-298.474666V426.666667c0-93.994667 45.525333-177.365333 115.733334-229.269334a193.088 193.088 0 0 1-22.4-78.677333C217.664 182.762667 149.333333 296.746667 149.333333 426.666667c0 8.789333 0.32 17.493333 0.917334 26.133333A149.333333 149.333333 0 0 0 234.666667 725.333333z m277.333333 64c83.136 0 159.744-27.968 220.906667-75.029333a149.333333 149.333333 0 1 0-63.914667-49.856A283.2 283.2 0 0 1 512 711.616c-42.709333 0-83.2-9.386667-119.573333-26.24a192.426667 192.426667 0 0 1-60.458667 56.170667A360.874667 360.874667 0 0 0 512 789.333333zM233.130667 490.709333l0.533333-0.042666-0.32 0.042666h-0.213333z m-1.856 0.042667l0.746666-0.042667h1.109334l-1.856 0.042667z m-1.024 0.042667l0.768-0.042667h0.256l-1.024 0.042667z m-3.349334 0.234666l0.448-0.042666h-0.170666l-0.277334 0.042666z m-1.92 0.170667h0.256-0.256z m-25.834666 7.189333l0.618666-0.277333-0.554666 0.256-0.064 0.021333z m-1.578667 0.746667l1.365333-0.64 0.213334-0.106667-0.213334 0.106667-0.234666 0.106667-1.130667 0.533333z m-14.592 8.96l2.069333-1.514667 0.682667-0.512-1.813333 1.322667-0.938667 0.704z m-0.64 0.512l0.298667-0.234667-0.042667 0.021334-0.256 0.213333z m537.834667 117.397333l-0.661334-0.938666 0.512 0.704 0.149334 0.234666z m23.296 21.973334l-1.194667-0.789334 0.597333 0.405334 0.597334 0.384z m27.562666 11.392l-0.597333-0.128 0.341333 0.064 0.256 0.064z m2.325334 0.469333l-0.362667-0.064 0.384 0.064h-0.021333z m0.32 0.064l-0.064-0.021333h0.021333l0.042667 0.021333z m6.656 0.96l-2.325334-0.277333-2.026666-0.277334 2.154666 0.298667 2.197334 0.256z m-551.274667-170.005333h-0.042667l-0.597333 0.042666 0.64-0.042666z m-3.648 0.32l-0.128 0.021333 0.682667-0.064-0.554667 0.042667z m-23.018667 5.824l-0.256 0.106666-1.024 0.426667 2.090667-0.853333-0.810667 0.32z m-12.608 6.421333l0.32-0.213333 0.554667-0.32-0.874667 0.533333z m-2.986666 1.941333l-0.021334 0.021334-1.045333 0.682666 1.066667-0.704z m43.178666-14.549333h-0.576 0.576z m522.218667 162.069333l0.341333 0.149334 0.170667 0.064-0.512-0.213334z m15.701333 5.738667l0.213334 0.064 0.170666 0.042667-0.384-0.106667z m5.632 1.237333l0.085334 0.021334-0.128-0.021334h0.042666z m-5.418666-1.173333l-0.192-0.064 1.664 0.426667a84.693333 84.693333 0 0 1-4.522667-1.216l1.834667 0.512-2.24-0.64-1.664-0.512-2.026667-0.704a84.714667 84.714667 0 0 1-8.256-3.392l0.682667 0.32-0.853334-0.384-0.405333-0.192-0.128-0.064-0.32-0.192-0.746667-0.362667-1.557333-0.810667-0.085333-0.021333-1.941334-1.066667 1.813334 0.981334-1.813334-1.002667-1.109333-0.618667-0.853333-0.512 0.170666 0.085334-0.192-0.106667-1.92-1.194667-0.576-0.362666-0.938666-0.64-0.533334-0.341334-1.728-1.216-1.322666-0.96-0.384-0.298666c-2.709333-2.048-5.290667-4.245333-7.744-6.592l-0.661334-0.64-0.853333-0.853334-1.109333-1.130666-0.341334-0.384-0.405333-0.405334-1.002667-1.109333-0.768-0.853333-0.149333-0.170667-0.426667-0.512-1.365333-1.642667-0.768-0.917333-0.554667-0.746667-0.064-0.085333-1.344-1.770667-0.384-0.554666-2.453333-3.584A85.333333 85.333333 0 1 1 789.333333 661.333333l-0.789333-0.021333L788.48 661.333333l-3.925333-0.128-1.130667-0.064a85.674667 85.674667 0 0 1-5.312-0.533333l-2.133333-0.298667-1.578667-0.277333 1.28 0.213333-1.301333-0.213333-0.490667-0.085333-0.277333-0.064-0.106667-0.021334-0.106667-0.021333h-0.042666l-1.6-0.32 0.938666 0.192-0.981333-0.213333-0.96-0.192-1.194667-0.277334 0.853334 0.213334-1.066667-0.234667-0.426667-0.128-0.469333-0.106667-0.192-0.042666h0.021333l-0.192-0.042667zM229.973333 490.816l3.370667-0.106667L234.666667 490.666667a85.333333 85.333333 0 1 1-70.293334 36.949333l2.944-4.053333c0.853333-1.066667 1.706667-2.133333 2.602667-3.157334l0.064-0.064 1.493333-1.706666-1.194666 1.386666 1.898666-2.133333c0.746667-0.810667 1.536-1.621333 2.346667-2.410667l0.213333-0.234666 0.490667-0.469334 0.554667-0.533333 1.322666-1.237333 0.490667-0.448 0.554667-0.490667-0.533334 0.490667 1.301334-1.152-0.256 0.213333 0.256-0.213333 0.384-0.341334 1.002666-0.832 0.469334-0.384 1.557333-1.237333-0.618667 0.469333 0.618667-0.490666 0.256-0.192 0.384-0.298667-0.341333 0.277333 1.28-0.981333 2.858666-2.005333 0.021334-0.021334 0.064-0.042666 0.746666-0.512 1.6-1.024 0.576-0.362667-1.557333 1.002667 2.752-1.728 1.685333-0.981334 1.386667-0.789333 0.789333-0.405333 1.002667-0.533334 1.749333-0.853333 1.109334-0.533333 0.234666-0.106667 0.277334-0.128 1.92-0.853333 0.746666-0.32 0.256-0.085334 0.256-0.106666 0.768-0.32 2.048-0.789334-1.194666 0.448c3.136-1.216 6.357333-2.24 9.664-3.072l5.013333-1.109333c1.493333-0.277333 2.986667-0.533333 4.48-0.725333l-0.64 0.085333 2.090667-0.256 0.533333-0.064h0.085333l0.170667-0.021333 0.362667-0.064 1.130666-0.085334-1.024 0.106667 1.301334-0.149333 0.426666-0.021334 1.408-0.106666h0.042667l0.661333-0.042667 0.533334-0.021333-0.277334 0.021333z"  horiz-adv-x="1024" />
      
      <glyph glyph-name="chanpinguanli" unicode="&#58887;" d="M132.3125 160.9125L482.46875-37.875v397.617188L132.3125 558.529688v-397.617188z m409.21875 198.7875V-37.875l350.15625 198.7875V558.529688zM510.228125 805.875L162.18125 603.923437l351.590625-195.623437 348.046875 201.951562z"  horiz-adv-x="1024" />
      
      <glyph glyph-name="weixin" unicode="&#58888;" d="M368.123555 524.218569c-14.631503 0-29.263006-9.754335-29.263006-24.385838s14.631503-24.385838 29.263006-24.385838 24.385838 9.754335 24.385838 24.385838c0 15.241149-9.754335 24.385838-24.385838 24.385838zM566.25849 382.780708c-9.754335 0-18.899024-10.363981-18.899025-19.50867 0-10.363981 9.754335-19.508671 18.899025-19.508671 14.631503 0 24.385838 9.754335 24.385838 19.508671s-9.754335 19.508671-24.385838 19.50867zM503.464956 475.446893c14.631503 0 24.385838 10.363981 24.385839 24.385838 0 14.631503-9.754335 24.385838-24.385839 24.385838s-29.263006-9.754335-29.263005-24.385838 14.631503-24.385838 29.263005-24.385838zM672.336886 382.780708c-9.754335 0-18.899024-10.363981-18.899025-19.50867 0-10.363981 9.754335-19.508671 18.899025-19.508671 14.631503 0 24.385838 9.754335 24.385838 19.508671s-9.754335 19.508671-24.385838 19.50867zM510.780708 803.436416C278.505599 803.436416 90.125 615.055816 90.125 382.780708s188.380599-420.655708 420.655708-420.655708 420.655708 188.380599 420.655708 420.655708-188.380599 420.655708-420.655708 420.655708zM430.917088 274.873375c-24.385838 0-43.894508 4.877168-67.061055 10.36398l-67.061055-34.140173 18.899025 59.135657c-48.16203 34.140173-77.425036 78.644328-77.425036 131.683526 0 93.275831 87.179371 166.433345 192.648121 166.433346 94.495123 0 178.016619-58.526012 194.477059-137.17034-6.09646 0.609646-12.192919 1.219292-18.289378 1.219292-91.446893-1.219292-163.385115-70.109285-163.385116-155.459718 0-14.021857 2.438584-27.434068 6.09646-40.846279-6.09646-0.609646-12.802565-1.219292-18.899025-1.219291z m285.314307-68.280347l14.631502-48.771677-52.429552 29.263006c-18.899024-4.877168-38.407695-9.754335-57.916365-9.754335-92.056539 0-164.604407 63.403179-164.604408 142.047507-0.609646 78.034682 71.938222 141.437861 163.385116 141.437862 87.179371 0 163.994762-64.012825 163.994761-142.047508 0-43.894508-28.653359-82.911849-67.061054-112.174855z"  horiz-adv-x="1024" />
      
      <glyph glyph-name="yanfa" unicode="&#58899;" d="M196.25 137.4375h211.5v-88.3125h-167.8125c-21.5625 0-39.09375-16.96875-39.09375-37.96875s17.53125-37.96875 39.09375-37.96875h523.6875c21.5625 0 39.09375 16.96875 39.09375 37.96875s-17.53125 37.96875-39.09375 37.96875h-160.3125V137.4375h225c48.5625 0 88.03125 37.21875 90 83.71875H106.25c1.96875-46.5 41.4375-83.71875 90-83.71875zM828.40625 787.3125H196.25c-49.78125 0-90.09375-39.09375-90.09375-87.375v-431.90625h812.34375V699.9375c0 48.28125-40.40625 87.375-90.09375 87.375zM330.6875 425.625c8.34375-10.125 6.65625-24.84375-3.75-32.90625-4.5-3.46875-9.84375-5.15625-15.09375-5.15625-7.03125 0-14.0625 3-18.84375 8.71875l-86.53125 104.4375c-6.84375 8.25-7.125 19.875-0.65625 28.5l86.53125 115.21875c7.875 10.5 22.96875 12.75 33.75 5.15625s13.21875-22.3125 5.34375-32.71875L255.78125 516.1875l74.90625-90.5625z m237.84375 205.03125l-87.375-235.78125c-3.5625-9.5625-12.84375-15.46875-22.78125-15.46875-2.71875 0-5.4375 0.46875-8.15625 1.40625-12.5625 4.40625-19.125 17.8125-14.53125 30l87.375 235.78125c4.5 12.1875 18.375 18.46875 30.9375 14.15625 12.5625-4.40625 19.03125-17.90625 14.53125-30.09375z m249.65625-129.9375l-86.53125-104.4375c-4.78125-5.71875-11.8125-8.71875-18.84375-8.71875-5.34375 0-10.6875 1.6875-15.09375 5.15625-10.40625 8.0625-12.09375 22.875-3.75 32.90625l74.90625 90.46875-75.65625 100.6875c-7.875 10.5-5.4375 25.125 5.34375 32.71875 10.78125 7.59375 25.875 5.34375 33.75-5.15625l86.53125-115.21875c6.46875-8.53125 6.1875-20.15625-0.65625-28.40625z"  horiz-adv-x="1024" />
      
      <glyph glyph-name="zhihu-circle-fill" unicode="&#60043;" d="M512 804C280.0625 804 92 615.9375 92 384s188.0625-420 420-420 420 188.0625 420 420S743.9375 804 512 804z m-85.03125-447.9375l-0.09375-1.40625c-1.40625-19.125-5.90625-41.15625-12.09375-63.375l22.5 16.96875 66.5625-75.65625c8.625-30.9375-3.09375-59.15625-3.09375-59.15625l-89.71875 104.90625v0.09375c-8.34375-27.1875-18.84375-53.71875-31.21875-79.40625-21.1875-42.84375-51.75-51.28125-83.90625-54.09375-32.25-2.8125-21.84375 4.96875-21.84375 4.96875 63.75 52.03125 73.125 82.3125 90.75 115.40625 11.15625 20.90625 19.125 60.28125 23.71875 90.75H279.59375s4.5 29.25 18 39.09375h95.25c0.5625 14.34375-1.21875 96.375-1.875 123.1875h-46.3125c-8.625-42.1875-38.4375-53.15625-45.09375-56.34375-6.5625-3.1875-22.125-6.65625-19.78125 0 2.4375 6.65625 25.3125 43.3125 40.5 103.78125 15.28125 60.5625 59.90625 58.125 59.90625 58.125-12-21.09375-21-69-21-69h149.71875c9.46875 0 9.9375-36.5625 9.9375-36.5625h-85.125c-0.65625-21.28125-2.625-78.5625-4.6875-123.1875H518.5625s11.4375-14.4375 11.4375-39.09375H426.96875z m324.84375-156.5625h-82.125l-65.15625-43.6875-15.375 43.6875h-37.59375V562.59375h200.25v-363.09375zM414.6875 291.1875s0 0.09375 0 0z m202.5-88.40625l53.25 35.71875h42.75-0.09375V522.09375H591.40625v-283.59375h13.21875z"  horiz-adv-x="1024" />
      
      <glyph glyph-name="shichanghejingjixiaoyi" unicode="&#59832;" d="M307.0625 384v-0.1875c-1.5-13.03125 10.875-24 36.65625-32.625v70.5c-23.8125-4.125-35.90625-16.59375-36.65625-37.6875zM868.71875 771.65625H158.9375c-19.21875 0-34.875-15.5625-34.875-34.875v-706.96875c0-19.21875 15.5625-34.875 34.875-34.875h41.71875c9.1875 40.6875 45.65625 71.15625 89.15625 71.15625 43.5 0 79.96875-30.375 89.15625-71.15625H428.5625c9.1875 40.6875 45.65625 71.15625 89.15625 71.15625 43.5 0 79.96875-30.375 89.15625-71.15625H656.375c9.1875 40.6875 45.65625 71.15625 89.15625 71.15625 43.5 0 79.96875-30.375 89.15625-71.15625h68.71875V736.78125c0.1875 19.21875-15.375 34.875-34.6875 34.875zM475.53125 246.5625c-3.84375-54.09375-36.09375-83.90625-96-88.78125v-31.6875h-35.71875v32.15625c-55.21875 6.28125-88.40625 37.6875-99 93.84375l-0.375 2.15625 52.03125 14.625 0.28125-2.8125c3.09375-34.03125 18.5625-53.71875 47.0625-59.53125V297.75c-62.625 15.84375-92.4375 44.90625-88.6875 86.53125 2.8125 52.03125 32.625 81.28125 88.6875 86.90625v27.46875h35.71875v-27.9375c49.125-6.1875 78.9375-34.6875 88.59375-84.84375l0.375-2.15625-51.84375-14.53125-0.46875 2.53125c-5.15625 27.1875-17.25 43.3125-36.75 49.03125v-78.84375c65.625-16.125 97.96875-48.1875 96.09375-95.34375z m307.21875-24.84375c0-9.46875-7.6875-17.0625-17.0625-17.0625H561.03125c-9.46875 0-17.0625 7.6875-17.0625 17.0625v40.78125c0 9.46875 7.6875 17.0625 17.0625 17.0625h204.65625c9.46875 0 17.0625-7.6875 17.0625-17.0625v-40.78125z m0 192c0-9.46875-7.6875-17.0625-17.0625-17.0625H561.03125c-9.46875 0-17.0625 7.6875-17.0625 17.0625v40.875c0 9.46875 7.6875 17.0625 17.0625 17.0625h204.65625c9.46875 0 17.0625-7.6875 17.0625-17.0625v-40.875z m0 192c0-9.46875-7.6875-17.0625-17.0625-17.0625H261.96875c-9.46875 0-17.0625 7.6875-17.0625 17.0625V646.5c0 9.46875 7.6875 17.0625 17.0625 17.0625h503.625c9.46875 0 17.0625-7.6875 17.0625-17.0625v-40.78125zM379.53125 288.84375v-83.53125c28.59375 3.09375 42.5625 17.15625 42.5625 42.84375v0.28125l0.09375 0.28125c1.40625 6 0.46875 11.4375-2.8125 16.59375-5.8125 9.09375-19.21875 16.96875-39.84375 23.53125z"  horiz-adv-x="1024" />
      
      <glyph glyph-name="zhiliangbaobiao" unicode="&#59025;" d="M215.368811 120.330322h296.62987a32.958874 32.958874 0 0 0 0-65.917749H215.368811a32.958874 32.958874 0 0 0 0 65.917749zM858.066864 713.590063a49.438312 49.438312 0 0 0 49.2076-44.692233L907.505176 664.151751V416.960193a32.958874 32.958874 0 0 0-65.687037-3.856188L841.587427 416.960193V647.672314H182.409937v-395.506494h295.443351a32.958874 32.958874 0 0 0 32.761121-29.102686l0.197753-3.856189a32.958874 32.958874 0 0 0-29.102686-32.728161l-3.856188-0.230713H165.9305a49.438312 49.438312 0 0 0-49.2076 44.692234L116.492188 235.686383v428.465368a49.438312 49.438312 0 0 0 44.692233 49.2076L165.9305 713.590063h692.136364zM718.156442 603.738135a32.958874 32.958874 0 0 0 51.679515-40.737169l-2.570792-3.22997-177.219869-197.753247a32.958874 32.958874 0 0 0-42.846537-5.438214l-3.295887 2.504874-126.463201 109.423463-110.41223-138.064725a32.958874 32.958874 0 0 0-42.945414-7.514623l-3.394764 2.373039a32.958874 32.958874 0 0 0-7.514623 42.945413l2.373039 3.394764 131.835498 164.794373a32.958874 32.958874 0 0 0 44.164892 6.72361l3.131093-2.405997 127.880433-110.609983 155.598847 173.594392zM729.065829 348.405734l-115.38902-33.255505A49.438312 49.438312 0 0 1 577.916431 267.68945v-65.58816c0-96.239913 62.292273-181.603399 154.511204-211.925563a32.958874 32.958874 0 0 1 20.599296 0C845.212903 20.464932 907.505176 105.828417 907.505176 202.068331v65.58816a49.438312 49.438312 0 0 1-35.72742 47.46078l-115.290143 33.288463a49.438312 49.438312 0 0 1-27.421784 0z m13.677933-64.599394l98.843665-28.542386v-53.195623l-0.164795-7.217993a157.510461 157.510461 0 0 0-95.350024-136.911165l-3.361805-1.318355-3.328846 1.318355A157.411585 157.411585 0 0 0 643.83418 202.134249v53.129705l98.909582 28.542386z"  horiz-adv-x="1024" />
      
      <glyph glyph-name="nav-06" unicode="&#58991;" d="M511.93 0c-10.92 0-21.83 4.17-30.17 12.5l-309.3 309.31c-101.89 101.92-101.89 267.72 0 369.64 49.36 49.36 115 76.56 184.83 76.56 56.39 0 110.06-17.75 154.64-50.58C556.51 750.25 610.18 768 666.57 768c69.83 0 135.47-27.19 184.83-76.56 49.36-49.36 76.56-115 76.56-184.81 0-69.83-27.19-135.47-76.56-184.83L542.1 12.5c-8.34-8.33-19.25-12.5-30.17-12.5zM357.29 682.58c-45.08 0-90.17-17.17-124.5-51.47-68.61-68.64-68.61-180.33 0-248.97L511.93 103l279.14 279.14c68.64 68.64 68.64 180.33 0 248.97-68.64 68.58-180.28 68.64-248.97 0-16.67-16.67-43.67-16.67-60.33 0-34.34 34.31-79.42 51.47-124.48 51.47zM511.93 312.89c-86.25 0-156.44 70.19-156.44 156.44 0 23.56 19.11 42.67 42.67 42.67 23.56 0 42.67-19.11 42.67-42.67 0-39.22 31.89-71.11 71.11-71.11s71.11 31.89 71.11 71.11c0 23.56 19.11 42.67 42.67 42.67 23.56 0 42.67-19.11 42.67-42.67-0.01-86.25-70.21-156.44-156.46-156.44z"  horiz-adv-x="1024" />
      
      <glyph glyph-name="youshang" unicode="&#58958;" d="M797.866667 686.933334h-362.666667c-23.466667 0-42.666667-19.2-42.666667-42.666667s19.2-42.666667 42.666667-42.666667h258.133333l-469.333333-469.333333c-17.066667-17.066667-17.066667-42.666667 0-59.733333 8.533333-8.533333 19.2-12.8 29.866667-12.8s21.333333 4.266667 29.866666 12.8l469.333334 469.333333v-258.133333c0-23.466667 19.2-42.666667 42.666666-42.666667s42.666667 19.2 42.666667 42.666667v362.666666c2.133333 21.333333-17.066667 40.533333-40.533333 40.533334z"  horiz-adv-x="1024" />
      
      <glyph glyph-name="yuangongfuli" unicode="&#58900;" d="M732.490971 636.046481c25.97065 0 43.505859-19.775391 43.505859-49.669446 0-22.741699-17.929945-51.317139-49.307156-80.683594l-7.020263-6.393786c-14.106188-12.524929-28.245592-23.170424-40.07761-31.113796l-2.076416-1.351061-2.241726 1.449938c-13.77634 9.26199-30.651855 22.148438-47.097874 37.441921-31.541748 29.432116-49.702663 58.139648-49.932861 81.079102 0 29.465332 17.533665 49.240723 43.505859 49.240722-1.648464 0 0.955553-1.021986 5.272923-3.626003l5.603542-3.625231 18.588867-12.985324c1.680908-1.120863 3.22895-2.109632 4.746094-3.032742l20.863037-12.524157 21.026802 12.293187 6.757622 4.284925 19.676514 13.579359 8.140354 4.943848c0.725355 0.494385 0.791016 0.692139 0.066433 0.692138z m-55.305434 41.989489l-3.658447 2.636461a231.273193 231.273193 0 0 1-12.359619 8.10791C647.324697 697.152438 635.294926 701.964193 621.781227 701.964193c-64.302464 0-109.456787-50.85597-109.456787-115.521498 0.461941-45.812473 27.356472-88.297119 70.894775-128.90233a438.156223 438.156223 0 0 1 68.98367-52.734633c7.910156-4.746094 16.314697-7.250462 25.3125-7.250461 9.195557-0.066433 18.456774 2.669678 26.333713 7.910156a431.631117 431.631117 0 0 1 67.896023 52.108154c43.439426 40.704088 70.16942 83.254395 70.16942 128.803454C841.914541 651.075778 796.727001 701.964193 732.490971 701.964193c-13.909206 0-26.071072-5.042725-40.440674-13.908434l-7.251234-4.746094-7.613526-5.273695z m-184.339857-266.342068c92.285414-63.28125 130.584011-94.525595 142.251492-124.221897 136.878147 44.428968 202.367907 59.425049 228.273668 47.427721 52.404785-24.32373 62.358141-115.290527 7.910156-163.37717-44.692383-39.518337-257.376709-140.636244-301.509046-144.854737-23.993883-2.307386-67.367649 9.788818-136.878147 34.277087-6.921387 2.471924-14.074516 5.009508-21.423855 7.679185a3990.673828 3990.673828 0 0 0-46.835232 17.3699l-37.473593 14.171849c-31.409655 11.865234-89.450426 11.865234-172.045898-1.680909a32.959242 32.959242 0 0 0-10.678711 65.028591c93.108873 15.292711 161.103773 15.292711 205.99391-1.648464 2.669678-1.021214 28.542223-10.843248 37.441148-14.171848a3927.293701 3927.293701 0 0 1 66.939698-24.554701c56.755371-20.006361 98.97583-31.805162 108.698988-30.849609 29.398899 2.801771 229.361315 97.888184 264.132786 128.638916 17.963161 15.820313 16.545668 44.659166 10.019016 52.503662a101.942139 101.942139 0 0 1-8.073921-0.824232c-10.876465-1.483154-26.136732-4.712877-45.549832-9.656725-37.144518-9.458971-88.65941-24.982653-154.313707-46.571045-11.60182-20.434313-33.058119-35.002441-64.895725-37.177734-46.275187-3.164063-127.914333 23.170424-160.840359 47.790784a32.959242 32.959242 0 0 0 39.550781 52.767077c20.665283-15.490465 86.880398-36.815443 116.806126-34.804688 4.812527 0.329847 8.240004 1.417494 10.448513 3.329373a30.651855 30.651855 0 0 0 3.329372 9.722385c0 1.911879-0.264187 4.086399-0.692911 6.558323 0.16531-0.922337-0.427952 0.198526-2.603245 2.900648a153.259277 153.259277 0 0 1-19.215345 19.017592c-19.215345 16.611328-49.603014 38.990736-96.041966 70.828342-67.302761 46.143093-102.997341 53.789835-125.046901 45.417738-9.492188-3.625231-67.236328-41.923828-161.828356-108.302708a32.959242 32.959242 0 1 0-37.869873 53.9536c103.820801 72.839098 158.729954 109.29225 176.263618 115.982666 44.726372 16.973619 102.107449 4.614 185.757351-52.668199z"  horiz-adv-x="1024" />
      
      <glyph glyph-name="shehuizhaopin" unicode="&#58948;" d="M840.5504 86.784a30.208 30.208 0 0 0 29.8496-30.5664 30.4128 30.4128 0 0 0-24.9856-30.208l-4.864-0.4096h-152.832a30.208 30.208 0 0 0-29.8496 30.6176c0 15.2064 10.8032 27.8016 24.9856 30.208l4.864 0.3584h152.832z m-250.7776 0a30.208 30.208 0 0 0 29.8496-30.5664 30.4128 30.4128 0 0 0-24.9856-30.208l-4.864-0.4096h-47.0016a30.208 30.208 0 0 0-29.8496 30.6176c0 15.2064 10.8032 27.8016 24.9856 30.208l4.864 0.3584h47.0016zM514.6112 742.4a203.7248 203.7248 0 0 0 203.3664-204.032c0-73.1648-38.4-137.3184-96.1024-173.3632 40.3456-19.2512 79.9232-47.616 117.7088-85.504a30.6688 30.6688 0 0 0 0-43.264 30.464 30.464 0 0 0-43.1616 0c-106.0864 106.3936-222.0032 123.5456-326.4 67.8912-90.0608-47.9744-155.392-145.408-155.392-224.768a30.5664 30.5664 0 1 0-61.0304 0c0 103.2704 78.7456 220.7232 187.8016 278.8352 15.3088 8.192 30.8224 15.0528 46.592 20.5824a203.6736 203.6736 0 0 0-76.8 159.5904C311.2448 651.0592 402.3808 742.4 514.6624 742.4z m325.9392-550.8096a30.208 30.208 0 0 0 29.8496-30.5664 30.4128 30.4128 0 0 0-24.9856-30.208l-4.864-0.4096h-152.832a30.208 30.208 0 0 0-29.8496 30.6176c0 15.2064 10.8032 27.8016 24.9856 30.208l4.864 0.3584h152.832z m-250.7776 0a30.208 30.208 0 0 0 29.8496-30.5664 30.4128 30.4128 0 0 0-24.9856-30.208l-4.864-0.4096h-47.0016a30.208 30.208 0 0 0-29.8496 30.6176c0 15.2064 10.8032 27.8016 24.9856 30.208l4.864 0.3584h47.0016z m-75.1616 489.6256c-19.6608 0-37.888-3.5328-54.6304-10.496-16.7936-6.9632-32.1536-17.408-46.08-31.3344a141.824 141.824 0 0 1-31.232-46.1824 142.2336 142.2336 0 0 1-10.4448-54.784c0-47.616 11.8784-83.3536 35.584-107.1616 20.6848-20.6848 50.2784-32.4096 88.8832-35.072 3.4304 0 6.8096-0.2048 10.1888-0.4096 2.4576-0.1536 5.12-0.2048 7.68-0.2048 47.5136 0 83.0976 11.8784 106.8032 35.6864 23.7568 23.808 35.6352 59.4944 35.6352 107.1104 0 19.712-3.4816 37.9904-10.4448 54.8352a141.824 141.824 0 0 1-31.232 46.1824 141.3632 141.3632 0 0 1-46.08 31.3344 141.0048 141.0048 0 0 1-54.6304 10.496z"  horiz-adv-x="1024" />
      
      <glyph glyph-name="fayan" unicode="&#58913;" d="M112 624a80 80 0 0 0 80 80h640a80 80 0 0 0 80-80v-440a80 80 0 0 0-80-80h-183.44l-108.28-108.28a40 40 0 0 0-56.56 0L375.44 104H192a80 80 0 0 0-80 80V624z m720 0H192v-440h200a40 40 0 0 0 28.28-11.72L512 80.56l91.72 91.72A40 40 0 0 0 632 184h200V624zM572 404a60 60 0 1 0-120 0 60 60 0 0 0 120 0zM732 404a60 60 0 1 0-120 0 60 60 0 0 0 120 0zM412 404a60 60 0 1 0-120 0 60 60 0 0 0 120 0z"  horiz-adv-x="1024" />
      
    </font>
</defs>
</svg>
